(navigation image)
Home Audio Books & Poetry | Community Audio | Computers & Technology | Grateful Dead | Live Music Archive | Music, Arts & Culture | Netlabels | News & Public Affairs | Non-English Audio | Podcasts | Radio Programs | Spirituality & Religion | The Shady Trees
Search: Advanced Search
Anonymous User (login or join us)
Upload

Listen to audio

item image

Stream (help[help])

VBR M3U
MP3 via M3U

Play / Download (help[help])

VBR ZIP

Ogg Vorbis

Lossless zip


All Files: HTTPS Torrent (2/0)

Resources

Bookmark

Club d'ElfClub d'Elf Live at Lizard Lounge on 2013-03-08 (March 8, 2013)

something has gone horribly wrong 8-p
Prefer flash? · Embed · Questions/Feedback?


Collection: ClubdElf
Band/Artist: Club d'Elf
Date: March 8, 2013 (check for other copies)
Venue: Lizard Lounge
Location: Cambridge, MA

Source: Schoeps MK22/MK4>KC5>CMC6>Sonosax SX-R4(24bit/96khz) & SB>SX-R4
Lineage: WAV>USB>Macbook Pro>Audacity(mixing)>Wave Editor(tracking,fades,resample(izotope)/dither(mbit+)to 16 bit/44.1k)>XAct(FLAC 8,ffp,fix sbe)
Taped by: Andy Murray
Transferred by: Andy Murray


Description

set 1

1. intro
2. bass beatbox
3. wist
4. scorpionic
5. as above
6. berber song
7. intros
8. left hand of clyde

set 2

1. intro
2. like a silence
3. salvia pt 1
4. salvia pt 2/ cha'abi jam
5. love & peace

Notes

Club d'Elf
2013-03-08
Lizard Lounge
Cambridge, MA

mk22s were 21cm,110 degrees DFC on stage
mk4s were NOS dfc on stage

Schoeps mk22> SchoepsNbox actives/Naiant PFAs>Sonosax SX-R4
Schoeps mk4>KC5>CMC6>Sonosax SX-R4(24bit/96khz) & Soundboard>SX-R4

Lineage: WAV>USB>Macbook Pro>Audacity(mixing)>Wave Editor(tracking,fades,resample(izotope)/dither(mbit+)to 16 bit/44.1k)>XAct(FLAC 8,ffp,fix sbe)

Taped by: Andy Murray
Transferred by: Andy Murray

Duke Levine (guitar)
Alain Mallet (keyboards)
Tom Hall (sax)
Mike Rivard (bass, electric bass kalimba)
Vicente Lebron (congas & percussion)
Dean Johnston (drums)

Leo Blanco sat in on keys later in set 2

2 Sets

length expanded size cdr WAVE problems fmt ratio filename
0:38.45 6809084 B --- -- ----- wav 1.0000 delf2013-03-08_mk22mk4sbmix_1644_d1t01.wav
22:31.67 238474028 B --- -- ----- wav 1.0000 delf2013-03-08_mk22mk4sbmix_1644_d1t02.wav
7:59.52 84617948 B --- -- ----- wav 1.0000 delf2013-03-08_mk22mk4sbmix_1644_d1t03.wav
18:14.40 193075724 B --- -- ----- wav 1.0000 delf2013-03-08_mk22mk4sbmix_1644_d1t04.wav
25:29.70 269880284 B --- -- ----- wav 1.0000 delf2013-03-08_mk22mk4sbmix_1644_d1t05.wav
9:57.22 105362588 B --- -- ----- wav 1.0000 delf2013-03-08_mk22mk4sbmix_1644_d1t06.wav
2:20.40 24790124 B --- -- ----- wav 1.0000 delf2013-03-08_mk22mk4sbmix_1644_d1t07.wav
19:50.62 210061868 B --- -- ----- wav 1.0000 delf2013-03-08_mk22mk4sbmix_1644_d1t08.wav
0:31.34 5548412 B --- -- ----- wav 1.0000 delf2013-03-08_mk22mk4sbmix_1644_d2t01.wav
16:05.34 170306012 B --- -- ----- wav 1.0000 delf2013-03-08_mk22mk4sbmix_1644_d2t02.wav
10:41.44 113175932 B --- -- ----- wav 1.0000 delf2013-03-08_mk22mk4sbmix_1644_d2t03.wav
29:28.70 312039884 B --- -- ----- wav 1.0000 delf2013-03-08_mk22mk4sbmix_1644_d2t04.wav
5:29.06 58049756 B --- -- ----- wav 1.0000 delf2013-03-08_mk22mk4sbmix_1644_d2t05.wav
169:19.61 1792191644 B 1.0000 (13 files)

Individual Files

Audio Files Flac VBR MP3 Ogg Vorbis
Intro 2.3 MB
798.0 KB
410.6 KB
Bass Beatbox 110.7 MB
29.8 MB
14.6 MB
Wist 39.1 MB
10.5 MB
5.1 MB
Scorpionic 92.3 MB
24.5 MB
12.1 MB
As Above 138.9 MB
34.6 MB
17.1 MB
Berber Song 55.3 MB
13.6 MB
6.8 MB
Band Intros 8.6 MB
3.2 MB
1.6 MB
Left Hand Of Clyde 99.6 MB
26.4 MB
13.2 MB
Intro 1.7 MB
661.0 KB
339.0 KB
Like A Silence 59.3 MB
19.6 MB
9.9 MB
Salvia pt.1 53.1 MB
14.7 MB
7.2 MB
Salvia pt.2 > Cha'abi Jam 165.6 MB
40.0 MB
20.0 MB
Love And Peace 22.0 MB
7.0 MB
3.5 MB
Information FormatSize
delf2013-03-08.schoeps_mk22mk4sbmix_16bit.ffp Flac FingerPrint 1,001.0 B
delf2013-03-08.schoeps_mk22mk4sbmix_16bit.md5 Checksums 1,014.0 B
delf2013-03-08.schoeps_mk22mk4sbmix_16bit_files.xml Metadata [file]
delf2013-03-08.schoeps_mk22mk4sbmix_16bit_meta.xml Metadata 4.4 KB
delf2013-03-08.schoeps_mk22mk4sbmix_16bit_reviews.xml Metadata 510.0 B
Other Files Archive BitTorrent Text
delf2013-03-08.schoeps_mk22mk4sbmix_16bit_archive.torrent 32.9 KB
delf2013-03-08_mk22mk4sbmix_1644_ffp.txt 1.0 KB
delf2013-03-08_mk22mk4sbmix_1644_info.txt 3.4 KB

Write a review
Downloaded 190 times
Reviews
Average Rating: 4.00 out of 5 stars4.00 out of 5 stars4.00 out of 5 stars4.00 out of 5 stars

Reviewer: snzimmer - 4.00 out of 5 stars4.00 out of 5 stars4.00 out of 5 stars4.00 out of 5 stars - May 12, 2013
Subject: Relaxed, long jams
Great show. Nice "Caravan" quote in Berber Song.